それマグで!

知識はカップより、マグでゆっくり頂きます。 takuya_1stのブログ

習慣に早くから配慮した者は、 おそらく人生の実りも大きい。

ts ファイルのメタデータ(情報)を知る方法

ffmpegでみることができます。

ffmpeg -y -i foooobar.ts 2>&1 | less


    Stream #0.7[0x163]: Data: 0x000d
    Stream #0.8[0x164]: Data: 0x000d
    Stream #0.9[0x165]: Data: 0x000d
  Program 2057 ^NNHK^O650i^N2<FE>^OBg:e
    Metadata:
      name            : ^NNHK^O650i^N2<FE>^OBg:e
      provider_name   :
    Stream #0.0[0x100]: Video: mpeg2video, yuv420p, 1440x1080 [PAR 4:3 DAR 16:9], 20000 kb/s, 33.43 fps, 29.97 tbr, 90k tbn, 59.94 tbc
    Stream #0.1[0x110]: Audio: aac, 48000 Hz, stereo, s16, 269 kb/s
    Stream #0.2[0x138]: Data: 0x0006
    Stream #0.3[0x140]: Data: 0x000d

でも、あんまり使うことない。

広告を非表示にする